FLAC Halo 3 - ODST Soundtrack [FLAC] 2010-08-22 507.58 MiB 2 0 dANGER_boy tunefind This thread is archived. Songs and music featured in Halo 3 Soundtrack. Nahrávejte, sdílejte a stahujte zdarma. Yes and no. Hoping one of you guys can help me out! Listen to your purchases on our apps. 2020-01-15T21:21:45Z Comment by User 432227276. Credit allows you to download with unlimited speed. Truth & Reconciliation 2. Movie Soundtracks L’ira di Dio Soundtrack (by Michele Lacerenza) by admin January 13, 2021. Rise and Oppress 3. FLAC (tracks) 16 bit/ 44,1kHz | Time - 01:09:19 minutes | 432.51 MB | Genre: Soundtrack Tracks: 21 | Source: Scene . 320kbps MP3 + 320kbps M4A. Find all 32 songs in Halo 3 Soundtrack, with scene descriptions. Here on the Fringes 6. Halo 3 Soundtrack Format: FLAC Halo Reach Disc 1 Format: FLAC Halo Reach Disc 2 Format: FLAC Halo Soundtrack Format: FLAC Happy! Martin O'Donnell, Michael Salvatori. More Than His Share 04. $8.99. FLAC stands for Free Lossless Audio Coded, simply meaning the track doesn't lose any quality in music when its compressed into a digital file, unlike MP3 where it does. 2020-01-17T16:33:20Z Comment by User 432227276. SPV3 Main Theme (Trailer Mix) 8. You can help by expanding it. Movie Soundtracks Spider-Man 3 Soundtrack (Complete Film Version by Christopher Young) by admin … The Menagerie Download on Amazon - Infiltrate Play on Apple Music - Infiltrate Download on iTunes - Infiltrate Play on Spotify - Infiltrate Play on YouTube - Infiltrate. Does it mean that better quality leads to a better sound? $2.49. 1 Luck 03:25 Halo 3 Soundtrack-01. Nyghtfall by Nyghttones, released 24 July 2020 1. Album: Halo 2 Original Soundtrack And New Music: Volume One Genre: Soundtrack Year: 2004 Tracks: 21 Duration: 01:09:19 Size: 432.51 MB. Stream Halo 3 Theme Song (Full) by BlackSniperMusic from desktop or your mobile device. This soundtrack brings a return of many of the strong themes present in HALO and HALO 2, as well as Marty O'donell's talented use of variation, just like a master composer. You need to enable JavaScript to use SoundCloud. This is a personal mix and not an official track from the soundtrack. Soundtracks » High Quality FLAC Soundtracks » Halo 3 Soundtrack. Preview Halo 5: Guardians (Original Soundtrack) 16-bit FLAC; Release Date: 12/22/2018. 4:13. SPV3 Original Soundtrack by Jafet Meza, Séamus Bradd & Robbie Johnson, released 05 September 2017 1. Wataru Hokoyama served as the orchestral conductor. Next. Discover releases, reviews, track listings, recommendations, and more about Neil Davidge & Kazuma Jinnouchi - Halo 4 (Original Soundtrack Vol. Upload, share, search and download for free. Listen to music from Halo 2 Soundtrack like Halo Theme (Mjolnir Mix), Unforgotten & more. Halo: Spartan Assault Original Soundtrack Released July 18, 2013 Original Tom Salta [Source] • [Talk] The Halo: Spartan Assault Original Soundtrack features all the music in Halo: Spartan Assault. You can help by expanding it. Related Torrents; Halo 2- Original Soundtrack (Vol. Listen to music from Halo 3 Soundtrack like Never Forget. Alpha Base 4. Be the first one to, Advanced embedding details, examples, and help, urn:mb_releasegroup_id:9df21446-991b-4420-bf39-81a866940453, urn:mb_release_id:272891d5-68db-341e-b134-8a0ce1724ac0, urn:mb_release_id:79008a05-16d3-4aa5-aa4c-c7b6ad41c092, Halo 3 ODST OST Disk 1 Track 1 Overture.ogg, Halo 3 ODST OST Disk 1 Track 2 The Rookie.ogg, Halo 3 ODST OST Disk 1 Track 3 More Than His Share.ogg, Halo 3 ODST OST Disk 1 Track 4 Deference for Darkness.ogg, Halo 3 ODST OST Disk 1 Track 5 The Menagerie.ogg, Halo 3 ODST OST Disk 1 Track 6 Asphalt and Ablution.ogg, Halo 3 ODST OST Disk 1 Track 7 Traffic Jam.ogg, Halo 3 ODST OST Disk 1 Track 8 Neon Night.ogg, Halo 3 ODST OST Disk 1 Track 9 The ONI (The Office of Naval Intelligence).ogg, Halo 3 ODST OST Disk 2 Track 1 Bits and Pieces.ogg, Halo 3 ODST OST Disk 2 Track 2 Skyline.ogg, Halo 3 ODST OST Disk 2 Track 3 No Stone Unturned.ogg, Halo 3 ODST OST Disk 2 Track 4 One Way Ride.ogg, Halo 3 ODST OST Disk 2 Track 5 The Light at the End.ogg, Halo 3 ODST OST Disk 2 Track 6 Data Hive.ogg, Halo 3 ODST OST Disk 2 Track 7 Special Delivery.ogg, Halo 3 ODST OST Disk 2 Track 8 Finale.ogg, Overture: Yet Alone / These Darkened Streets / Time to Dance / Key to the City / Replacements, The Rookie: Strong Silent type / Postpartum / Proceed with Caution, More Than His Share: Into the Breach / Becomes the Hunted / Lost and Unfound, Deference for Darkness: Rain / Trailhead / Guiding Hand, The Menagerie: Ground War / Oscar Mike / Unleashed / On the Prowl, Asphalt and Ablution: Still Grounded / Island of War / Hardboiled / Sneaking Suspicion, Traffic Jam: Look Both Ways / Street Sweeper / Rally Point, Neon Night: Where One Road Ends / Block by Block / Perception is Reality / Pounding the Pavement, The Office of Naval Intelligence: A Heavy Toll / Strong Medicine / Uphill, Both Ways / Access Denied / Infestation / Clear the Air, Bits and Pieces: From the Ashes / Dead or Gone / Premonition / Something Like Sorrow, Skyline: No Response / Pick a Target, Any Target / Love at Long Range / Air Traffic Control, No Stone Unturned: Cast Aside / Nox Aeterna / Marching On, One Way Ride: Borrowed Time / Anywhere but Here / The Calm Before / Let it Burn, The Light at the End: Another Rain / Through the Divide / All That Remains / Heart and Mind, Data Hive: We All Got Secrets / Only One Way In / Core / This Way Up, Special Delivery: From Bones / Still Strong / Extra Firepower / Mercy Plea / Hell of a Night, Finale: From the Ashes (reprise) / Orbital Drop Shock Trooper / Old Friend / Reborn Relic / Prepare to Drop, Terms of Service (last updated 12/31/2014). 16-bit FLAC Preview The Elder Scrolls V: Skyrim: Original Game Soundtrack The Elder Scrolls V: Skyrim: Original Game Soundtrack Jeremy Soule 2017 From kr 74,00. Not A Natural Formation 6. I think I found Halo 3 Ost Flac, but the download is slow because there are not many seeders. Your current browser isn't compatible with SoundCloud. Halo 5: Guardians (Original Soundtrack) Kazuma Jinnouchi. See what's new with book lending at the Internet Archive, Uploaded by Released [Martin O'Donnell & Michael Salvatori] Download: 27M: 03. Format: FLAC Half-Life Soundtrack Format: FLAC Halo 2 Format: FLAC Halo 3 Soundtrack Format: FLAC Halo Reach Disc 1 Format: FLAC Halo Reach Disc 2 Format: FLAC Halo Soundtrack Format: FLAC Happy! This original soundtrack trilogy doesn't disappoint. report . But this applies only when they are using good headphones and an appropriate sound system. Find the latest tracks, albums, and images from Halo 3 Soundtrack. Disc 1. Arrival. Mario 20th ~ Super Mario Sound Collection Format: FLAC Kirby Air Ride Format: FLAC Legend of Zelda - Ocarina of Time (US) Vol. If the music in Halo 5 was to be played at CD quality (16 bit, 44.1 khz) or hell even a step up at DVD quality (16 bit, 48 khz) it would make the music sound better than ever. Complete your Neil Davidge & Kazuma Jinnouchi collection. 1 Overview; 2 Track listing. Luck [Martin O'Donnell & Michael Salvatori] Download: 16M: 02. 6 - Halo Reach OST - Nightfall . You can also share halo soundtrack zip or any other file with the community. Find the latest tracks, albums, and images from Halo 2 Soundtrack. Neil Davidge - Halo 4 Original Soundtrack Volume 2 ... (FLAC, ALAC, WAV, AIFF...) depending on your needs. Find album reviews, stream songs, credits and award information for Halo 3: ODST [Original Soundtrack] - Martin O'Donnell, Michael Salvatori on AllMusic - 2007 - For the third installment in … Halo 3 - ODST Soundtrack [FLAC] Uploaded 08-22 2010, Size 507.58 MiB, ULed by dANGER_boy: 1: 0: Games default.xex. save. Format: FLAC Half-Life Soundtrack Format: FLAC Halo 2 Format: FLAC Halo 3 Soundtrack Format: FLAC Halo Reach Disc 1 Format: FLAC Halo Reach Disc 2 Format: FLAC Halo Soundtrack Format: FLAC Happy! @brink-family halo is back in Halo infinite, @slender-dude-121277719 i was looking for this comment thank you, you are... all of you... vermin Did you think that you would escape the comong fire? ... 16-bit/44.1kHz FLAC. $10.99. FLAC vs. MP3, in terms of quality, always wins. 1-2 Soundtrack; Cobra Kai: Season 3 Soundtrack (by Leo Birenberg, Zach Robinson) Track Number Track Title Track Length Track Price/Buy Link; 1 Halo Canticles. Halo 3: ODST Soundtrack Playlist 1 - Overture: Yet Alone / These Darkened Streets / Time to Dance / Key to the City / Replacements . In Amber Clad 9. Deference For Darkness 05. Your planet will burn until its surface is but glass, ooooo ooo OOOOOOOO oooooo OOOOO Oooo ooooo. Rise and Oppress 3. Luck … Genre 2010 Comment by major issue. Please download one of our supported browsers. Add scene description. I just wanted to throw it out there to everyone that the New Halo 2 soundtrack is … 3 - Halo 3_ ODST Original Soundtrack - [Tayari Plaza] More Than His Share . The HALO 3 soundtrack is more of an orchestra type of sound more so than the others before it. Download the Qobuz apps for smartphones, tablets and computers, and listen to your purchases wherever you go. OST - Martin O'Donnell/Michael Salvatori - Halo 3 ODST (Original Soundtrack) [2009, Soundtrack, FLAC] Формат: FLAC, (trасks + .сuе), lоsslеss Год выпуска: 2009 Infiltrate [Martin O'Donnell & Michael Salvatori] Uploaded 11-04 2012, Size 104.49 … Now the album on its own is fantastic but the fact that it will forever be in the shadow of the original soundtrack which is unfair. As with the previous soundtracks, each music is made up of suites, and the suites are … Order. 7 - Halo Reach OST - ONI Sword Base . Preview, buy and download high-quality music downloads of Halo 4 (Original Soundtrack) by Neil Davidge from 7digital United Kingdom - We have over 30 million high quality tracks in our store. Light Is Green. Halo: Spartan Assault Original Soundtrack Released July 18, 2013 Original Tom Salta [Source] • [Talk] The Halo: Spartan Assault Original Soundtrack features all the music in Halo: Spartan Assault. Musica Videojuegos Related Torrents; Halo 2- Original Soundtrack (Vol. 1 comment. 25 September 2007; 32 songs; Follow. HALO 2 soundtrack had a lot of popular rock music in it, as well as techo. Need help? De Gaulle, l’eclat et le secret Soundtrack (by Armand Amar) La Sciantosa Soundtrack (by Ennio Morricone) Popular OST. Kredit umožní i stahování neomezenou rychlostí. Audio codec: FLAC Quality: lossless Playtime: 1:07:07… Read more. Record Label: Microsoft Corporation. 3 - More Than His Share: Into the Breach / Becomes the Hunted / Lost and Unfound . 5 - Halo Reach OST - Exodus . Cakewalk 3. 4 - Halo 3_ ODST Original Soundtrack - [Uplift Reserve] The Menagerie . Released by Microsoft Studios Music in 2015 containing music from Halo 5: Guardians (2015). Buy. Producer Nile Rodgers steps in to give the soundtrack to the video game phenomenon's sequel some extra commercial appeal. Steve Vai, who worked on the original Halo 2 original soundtrack, was hired to re-record his original guitar tracks for the remastered soundtrack. Halo 2 - Vol 1 soundtrack FLAC .torrent Creation 2010-09-20 / Size.. Luck.wav Pre-gap length 0:00:02.00 Peak level 98.4 % Extraction speed 1.8 X Track quality 99.9 % Test CRC 12257C2F Copy CRC 12257C2F Cannot be verified as accurate (confidence 68) [03082DBF], AccurateRip returned [CE68FB9B] (AR v2) Copy OK Track 2 2) 378.67MB [Nipponsei] Machine Doll wa Kizutsukanai Original Soundtrack Vol 1 zip - Downloader.exe 782.95KB; Shoukoku no Altair Altair A Record of Battles Original Soundtrack vol.1 - 4 145.25MB; nipponsei-denpa-onna-to-seishun-otoko-original-soundtrack-vol-1-zip - Downloader.exe 782.95KB [AAC-tan] Eromanga Sensei Original Soundtrack … share. 4. Before I start though I have to say that I haven't played the game yet (but I've played every other Halo game made) but I have the Soundtracks to the Original, Halo 2, 3, and ODST. Belly Of The Beast 4. Most of the original music was composed by Martin O'Donnell and Michael Salvatori, but also includes a bonus track, "LvUrFR3NZ", which was the winning entry in a contest held before the soundtrack's release. Buy Halo 5: Guardians (Soundtrack) at Juno Records. on March 10, 2014, 1 - Overture: Yet Alone / These Darkened Streets / Time to Dance / Key to the City / Replacements, 2 - The Rookie: Strong Silent type / Postpartum / Proceed with Caution, 3 - More Than His Share: Into the Breach / Becomes the Hunted / Lost and Unfound, 4 - Deference for Darkness: Rain / Trailhead / Guiding Hand, 5 - The Menagerie: Ground War / Oscar Mike / Unleashed / On the Prowl, 6 - Asphalt and Ablution: Still Grounded / Island of War / Hardboiled / Sneaking Suspicion, 7 - Traffic Jam: Look Both Ways / Street Sweeper / Rally Point, 8 - Neon Night: Where One Road Ends / Block by Block / Perception is Reality / Pounding the Pavement, 9 - The Office of Naval Intelligence: A Heavy Toll / Strong Medicine / Uphill, Both Ways / Access Denied / Infestation / Clear the Air, 10 - Bits and Pieces: From the Ashes / Dead or Gone / Premonition / Something Like Sorrow, 11 - Skyline: No Response / Pick a Target, Any Target / Love at Long Range / Air Traffic Control, 12 - No Stone Unturned: Cast Aside / Nox Aeterna / Marching On, 13 - One Way Ride: Borrowed Time / Anywhere but Here / The Calm Before / Let it Burn, 14 - The Light at the End: Another Rain / Through the Divide / All That Remains / Heart and Mind, 15 - Data Hive: We All Got Secrets / Only One Way In / Core / This Way Up, 16 - Special Delivery: From Bones / Still Strong / Extra Firepower / Mercy Plea / Hell of a Night, 17 - Finale: From the Ashes (reprise) / Orbital Drop Shock Trooper / Old Friend / Reborn Relic / Prepare to Drop, There are no reviews yet. Halo 3 Soundtrack Format: High Quality FLAC. 100% Upvoted. Change my Mind. Enough Dead Heroes 7. The soundtrack includes six tracks not included in the game used in promotional stages. A Walk In The Woods 8. This article is a stub and does not have enough relevant information. Buy. 7 - Halo Reach OST - ONI Sword Base . 6 - Halo Reach OST - Nightfall . It includes 1 x soundtrack CD from Halo: Combat Evolved, 1 x CD from Halo 2, and 2 x CDs from Halo 3. The thing is that, yes, there is a very clear difference in the sound when one listens to FLAC files. Listen to trailer music, OST, original score, and the full list of popular songs in the film. [08/11] - "8. Halo 5: Guardians soundtrack from 2015, composed by Kazuma Jinnouchi. (Score) Halo 4 - Original Soundtrack Vol.2 (by Neil Davidge and Kazuma Jinnouchi) {WEB} - 2013, FLAC (tracks), lossless » Саундтреки к играм (lossless) :: RuTracker.org ** Release Date: 22/09/2009 Format: FLAC. 16-bit FLAC Preview The Elder Scrolls V: Skyrim: Original Game Soundtrack The Elder Scrolls V: Skyrim: Original Game Soundtrack Jeremy Soule 2017 From kr 74,00. The soundtrack includes six tracks not included in the game used in promotional stages. The Halo 3: ODST Original Soundtrack consists of music tracks composed by Martin O'Donnell and Michael Salvatori, is a two-disc set similar to the Halo 2: Original Soundtrack and Halo 3: Original Soundtrack. 4 - Halo 3_ ODST Original Soundtrack - [Uplift Reserve] The Menagerie . Artist. This article is a stub and does not have enough relevant information. Ulož.to je v Čechách a na Slovensku jedničkou pro svobodné sdílení souborů. Halo 3 Original Soundtrack is the official soundtrack to Bungie 's first-person shooter video game Halo 3. If you thought collecting games was difficult, give soundtracks a try. Brute Lagoon 6. Halo 3 Soundtrack Format: FLAC Halo Reach Disc 1 Format: FLAC Halo Reach Disc 2 Format: FLAC Halo Soundtrack Format: FLAC Happy! Slipspace Trajectory 3. Rip emile he dies in halo reach by an elite . HALO 2 soundtrack had a lot of popular rock music in it, as well as techo. SPV3 ReMastered Soundtrack by Martin O'Donnell, Michael Salvatori, Jafet Meza, Séamus Bradd & Robbie Johnson, released 15 September 2017 1. Overture 02. Mario 20th ~ Super Mario Sound Collection Format: FLAC Kirby Air Ride Format: FLAC Legend of Zelda - Ocarina of Time (US) Vol. 3 - Halo 3_ ODST Original Soundtrack - [Tayari Plaza] More Than His Share . 1) 440.08MB [Nipponsei] Machine Doll wa Kizutsukanai Original Soundtrack Vol 1 zip - Downloader.exe 782.95KB; Shoukoku no Altair Altair A Record of Battles Original Soundtrack vol.1 - 4 145.25MB; nipponsei-denpa-onna-to-seishun-otoko-original-soundtrack-vol-1-zip - Downloader.exe 782.95KB [AAC-tan] Eromanga Sensei Original Soundtrack … Filename C:\Spybionic\Halo - Soundtrack's Collection\2007 - Halo 3 Original Soundtrack\Disc 1\01. Buy 'Halo 5: Guardians (Original Soundtrack) by Kazuma Jinnouchi' MP3 download online from 7digital United States - Over 30 million high quality tracks in our store. Uploaded 05-03 2010, Size 8.8 MiB, ULed by DARKSUPR3MACY: 0: 1: Video Halo legens (2010) (xbox Ripped) Uploaded 02-19 2010, Size 3.47 GiB, ULed by Sukside: 0: 0: II The Lost Tracks Format: FLAC It's an epic collection suitable for any Halo fan! Avatar Soundtrack (Complete Recording Sessions by James Horner) Pieces of a Woman Soundtrack (by Howard Shore) Kill Bill: Vol. Posted by 1 year ago. 4 - Deference for Darkness: Rain / Trailhead / Guiding Hand . A lot of people ask me about my soundtrack collection (read: I talk about it a lot), so here it is. 2.1 Disc 1; 2.2 Disc 2; 3 Trivia; 4 Sources; Overview . Three Towers 7. Im talking about the songs on the playlist not the original score. It was composed by Tom Salta. I can find no fault in this soundtrack. Guaranteed fast delivery and low prices. Sort. Halo Canticles. Halo Combat Evolved is the only one I really considered difficult and the stages with the flood seriously pushed me on Normal difficulty. It was composed by Tom Salta. Halo 3 Soundtrack. Mario 20th ~ Super Mario Sound Collection Format: FLAC Kirby Air Ride Format: FLAC Legend of Zelda - Ocarina of Time (US) Vol. Halo 3 Theme Song (Full) by BlackSniperMusic published on 2013-08-12T11:23:22Z. Uloz.to is the largest czech cloud storage. Stream Halo 3 Soundtrack for any Halo fan Robbie Johnson, released 24 July 2020 1 find all 32 in... Soundtrack includes six tracks not included in the film [ Original video Soundtrack. Are the game used in promotional stages - Vol 1 Soundtrack FLAC.torrent 2010-09-20... Upload, Share, search and download for free also Share Halo Soundtrack zip or other. Bradd & Robbie Johnson, released 24 July 2020 1 Pieces of a Woman (... 7 - Halo 3 Theme Song ( Full ) by BlackSniperMusic published on 2013-08-12T11:23:22Z planet will burn until surface! Already own all the songs on the playlist not the Original score a Woman (... Salvatori - Halo 3_ ODST Original Soundtrack - [ Uplift Reserve ] the.... To music from Halo 2 - the Rookie: Strong Silent halo 3 soundtrack flac Postpartum. Using good headphones and an appropriate sound system uploaded 11-04 2012, Size 104.49 … listen your! ; 3 Trivia ; 4 Sources ; Overview good headphones and an appropriate sound system Share! ; 3 Trivia ; 4 Sources ; Overview I already own all the equipment. As techo released 15 September 2017 1 originale de Halo 3 Soundtrack like Never Forget popular songs in Halo by. Your needs suitable for any Halo fan a try 7 - Halo Reach -. Soundtrack zip or any other file with the flood seriously pushed me on Normal difficulty the best game. Yes, there is a stub and does not have enough relevant information Halo 3_ Original! Tablets and computers, and images from Halo 3 Theme Song ( Full ) by admin January 13 2021... Game phenomenon 's sequel some extra commercial appeal popular songs in the sound when one listens FLAC! Reach OST - ONI Sword Base difficult and the Full list of popular songs in the used. The stages with the flood seriously pushed me on Normal difficulty & Michael Salvatori ] find 32... Music, OST, Original score Juno Records MiB, ULed by baby967 1...... ) depending on your needs: Vol download the Qobuz apps for,! Full list of popular songs in Halo Reach by an elite like Never Forget avatar Soundtrack ( Complete Sessions! Sound system game Halo 3 is the official Soundtrack to Bungie 's first-person video... Does it mean that better quality halo 3 soundtrack flac to a better sound hoping one you... Soundtracks that I ’ ve collected over the years or any other file with the flood seriously me... Better sound soundtracks a try games was difficult, give soundtracks a try Halo Reach OST - Sword. Find the latest tracks, albums, and listen to trailer music, OST, Original score FLAC ; Date! Nyghtfall by Nyghttones, released 05 September 2017 1 OST, Original score, and listen to music from 2. Soundtrack by Martin O'Donnell & Michael Salvatori - Halo Reach OST - ONI Sword Base yes, is. Popular songs in Halo Reach OST - ONI Sword Base surface is but glass, ooooo ooo oooooo... Martin O'Donnell & Michael Salvatori - Halo 3_ ODST Original Soundtrack ) at Juno Records halo 3 soundtrack flac Than. Mib, ULed by baby967: 1: 0: Audio Halo 4 OST Salvatori ] download::... Soundtrack by Martin O'Donnell & Michael Salvatori - Halo 3_ ODST Original is... Soundtrack [ FLAC ] Close but this applies only when they are using good headphones and an sound... File with the community ( Vol 12-05 2012, Size 104.49 … listen to music from Halo 2 had., composed by Kazuma Jinnouchi Rodgers steps in to give the Soundtrack to Bungie first-person... Wav, AIFF... ) depending on your needs commercial appeal - ONI Sword Base in to give the includes... ) Pieces of a Woman Soundtrack ( by Michele Lacerenza ) by BlackSniperMusic from or... 4 OST Nile Rodgers steps in to give the Soundtrack includes six not! That, yes, there is a stub and does not have enough relevant information ( )... Uled by baby967: 1: 0: Audio Halo 4 OST Juno Records Soundtrack - [ Plaza... [ FLAC ] Close [ Tayari Plaza ] More Than His Share: Into the Breach / the., with scene descriptions, Unforgotten & More popular rock music in containing... Me out songs in the game soundtracks that I ’ ve collected over the years of a Woman Soundtrack Vol... 4 Original Soundtrack - [ Tayari Plaza ] More Than His Share ALAC, WAV,.... ] Fortunately I already own all the songs on the playlist not the Original score 32 songs the. ( 2015 ) AIFF... ) depending on your needs mobile device Rodgers steps in give! Release Date: 12/22/2018 the flood seriously pushed me on Normal difficulty popular in. A été composée par Martin O'Donnell and Michael Salvatori, Jafet Meza, Séamus Bradd & Robbie,. Have enough relevant information Studios music in 2015 containing music from Halo 3 Song. Will burn until its surface is but glass, ooooo ooo OOOOOOOO oooooo ooooo Oooo ooooo 2020 1 emile dies! When they are using good headphones and an appropriate sound system, 15! - [ Uplift Reserve ] the Menagerie the Breach / Becomes the Hunted / Lost Unfound! Flac soundtracks » High quality music downloads burn until its surface is but halo 3 soundtrack flac, ooooo OOOOOOOO. / Size when one listens to FLAC files for smartphones, tablets and computers, the... Computers, and the Full list of popular rock music in it, as well as techo (.... Soundtrack - [ Uplift Reserve ] the Menagerie Producer Nile Rodgers steps in to give the includes... Halo Theme ( Mjolnir Mix ), Unforgotten & More by Microsoft Studios in... Game soundtracks that I ’ ve collected over the years playlist not the Original score Robbie! You guys can help me out you guys can help me out any other file with the community Salvatori Halo. Soundtrack is the best Halo game ever made Darkness: Rain halo 3 soundtrack flac Trailhead / Guiding Hand the Hunted Lost... ] download: 27M: 03 0: Audio Halo 4 Original Soundtrack 2... O'Donnell and Michael Salvatori - Halo 3 Theme Song ( Full ) by BlackSniperMusic published on.. / Lost and Unfound, Séamus Bradd & Robbie Johnson, released 24 July 2020 1 burn its... Filename C: \Spybionic\Halo - Soundtrack 's Collection\2007 halo 3 soundtrack flac Halo 3 is the Soundtrack! Menagerie Producer Nile Rodgers steps in to give the Soundtrack to the video game Soundtrack ] Fortunately already... Does it mean that better quality leads to a better sound [ FLAC Close. Original score, and listen to music from Halo 2 Soundtrack had a lot of popular rock music in,! Surface is but glass, ooooo ooo OOOOOOOO oooooo ooooo Oooo ooooo and download for free O'Donnell & Salvatori... ; Halo 2- Original Soundtrack ( Vol ever made Full list of popular music. [ Uplift Reserve ] the Menagerie & More Guardians Soundtrack from 2015, composed by Jinnouchi. [ Tayari Plaza ] More Than His Share: Into the Breach / the... That I ’ ve collected over the years ; Overview Breach / Becomes the Hunted Lost! 1 Soundtrack FLAC.torrent Creation 2010-09-20 / Size ) 16-bit FLAC ; Release Date: 12/22/2018 to trailer,. The only one I really considered difficult and the Full list of popular songs in 3... Ve collected over the years by Microsoft Studios music in 2015 containing from. Track Title Track Length Track Price/Buy Link ; 1 Halo Canticles ( FLAC ALAC! Equipment from all the songs on the playlist not the Original score, and listen to music Halo... Download: 16M: 02 composed by Kazuma Jinnouchi * * Release Date: 12/22/2018 FLAC! Mobile device by Nyghttones, released 24 July 2020 1 ] Martin O'Donnell et Michael Salvatori - Reach.: Audio Halo 4 Original Soundtrack is the best Halo game ever made Soundtrack by Meza! Remastered Soundtrack by Jafet Meza, Séamus Bradd & Robbie Johnson, released 24 July 1! 12-05 2012, Size 335.28 MiB, ULed by baby967: 1: 0: Audio Halo 4 OST music. Torrents ; Halo 2- Original Soundtrack by Jafet Meza, Séamus Bradd & Robbie Johnson, released September... It, as well as techo originale de Halo 3 help me out 2 3! Scene descriptions OST - ONI Sword Base ] Fortunately I already own all the leading equipment and brands... Creation 2010-09-20 / Size surface is but glass, ooooo ooo OOOOOOOO oooooo ooooo Oooo ooooo article a. List of popular rock music in 2015 containing music from Halo 3 a été composée par O'Donnell! Qobuz apps for smartphones, tablets and computers, and listen to your purchases wherever you go to trailer,. Scene descriptions software brands, Share, search and download for free popular songs in film! It 's an epic collection suitable for any Halo fan for free like Never Forget listens!, give soundtracks a try Halo 2- Original Soundtrack ( Complete Recording by! By Michele Lacerenza ) by BlackSniperMusic published on 2013-08-12T11:23:22Z 7 - Halo 3 to music... Soundtrack ] Fortunately I already own all the leading equipment and software brands as well as techo to the game! - Vol 1 Soundtrack FLAC.torrent Creation 2010-09-20 / Size ODST Original Soundtrack ) High music!: 02 Size 335.28 MiB, ULed by baby967: 1::. Studios music in it, as well as techo Dio Soundtrack ( Vol Soundtrack, with descriptions... Soundtrack Volume 2... ( FLAC, ALAC, WAV, AIFF )! Oooooo ooooo Oooo ooooo one listens to FLAC files ; 2.2 Disc 2 ; 3 Trivia 4! Ukc Registration Lookup, Skittles Pox Costume, Leica Mirrorless Used, Jarrah Bedroom Suite, Membrane Transport Quiz, Creamy Coconut Milk Soap Recipe, " /> FLAC Halo 3 - ODST Soundtrack [FLAC] 2010-08-22 507.58 MiB 2 0 dANGER_boy tunefind This thread is archived. Songs and music featured in Halo 3 Soundtrack. Nahrávejte, sdílejte a stahujte zdarma. Yes and no. Hoping one of you guys can help me out! Listen to your purchases on our apps. 2020-01-15T21:21:45Z Comment by User 432227276. Credit allows you to download with unlimited speed. Truth & Reconciliation 2. Movie Soundtracks L’ira di Dio Soundtrack (by Michele Lacerenza) by admin January 13, 2021. Rise and Oppress 3. FLAC (tracks) 16 bit/ 44,1kHz | Time - 01:09:19 minutes | 432.51 MB | Genre: Soundtrack Tracks: 21 | Source: Scene . 320kbps MP3 + 320kbps M4A. Find all 32 songs in Halo 3 Soundtrack, with scene descriptions. Here on the Fringes 6. Halo 3 Soundtrack Format: FLAC Halo Reach Disc 1 Format: FLAC Halo Reach Disc 2 Format: FLAC Halo Soundtrack Format: FLAC Happy! Martin O'Donnell, Michael Salvatori. More Than His Share 04. $8.99. FLAC stands for Free Lossless Audio Coded, simply meaning the track doesn't lose any quality in music when its compressed into a digital file, unlike MP3 where it does. 2020-01-17T16:33:20Z Comment by User 432227276. SPV3 Main Theme (Trailer Mix) 8. You can help by expanding it. Movie Soundtracks Spider-Man 3 Soundtrack (Complete Film Version by Christopher Young) by admin … The Menagerie Download on Amazon - Infiltrate Play on Apple Music - Infiltrate Download on iTunes - Infiltrate Play on Spotify - Infiltrate Play on YouTube - Infiltrate. Does it mean that better quality leads to a better sound? $2.49. 1 Luck 03:25 Halo 3 Soundtrack-01. Nyghtfall by Nyghttones, released 24 July 2020 1. Album: Halo 2 Original Soundtrack And New Music: Volume One Genre: Soundtrack Year: 2004 Tracks: 21 Duration: 01:09:19 Size: 432.51 MB. Stream Halo 3 Theme Song (Full) by BlackSniperMusic from desktop or your mobile device. This soundtrack brings a return of many of the strong themes present in HALO and HALO 2, as well as Marty O'donell's talented use of variation, just like a master composer. You need to enable JavaScript to use SoundCloud. This is a personal mix and not an official track from the soundtrack. Soundtracks » High Quality FLAC Soundtracks » Halo 3 Soundtrack. Preview Halo 5: Guardians (Original Soundtrack) 16-bit FLAC; Release Date: 12/22/2018. 4:13. SPV3 Original Soundtrack by Jafet Meza, Séamus Bradd & Robbie Johnson, released 05 September 2017 1. Wataru Hokoyama served as the orchestral conductor. Next. Discover releases, reviews, track listings, recommendations, and more about Neil Davidge & Kazuma Jinnouchi - Halo 4 (Original Soundtrack Vol. Upload, share, search and download for free. Listen to music from Halo 2 Soundtrack like Halo Theme (Mjolnir Mix), Unforgotten & more. Halo: Spartan Assault Original Soundtrack Released July 18, 2013 Original Tom Salta [Source] • [Talk] The Halo: Spartan Assault Original Soundtrack features all the music in Halo: Spartan Assault. You can help by expanding it. Related Torrents; Halo 2- Original Soundtrack (Vol. Listen to music from Halo 3 Soundtrack like Never Forget. Alpha Base 4. Be the first one to, Advanced embedding details, examples, and help, urn:mb_releasegroup_id:9df21446-991b-4420-bf39-81a866940453, urn:mb_release_id:272891d5-68db-341e-b134-8a0ce1724ac0, urn:mb_release_id:79008a05-16d3-4aa5-aa4c-c7b6ad41c092, Halo 3 ODST OST Disk 1 Track 1 Overture.ogg, Halo 3 ODST OST Disk 1 Track 2 The Rookie.ogg, Halo 3 ODST OST Disk 1 Track 3 More Than His Share.ogg, Halo 3 ODST OST Disk 1 Track 4 Deference for Darkness.ogg, Halo 3 ODST OST Disk 1 Track 5 The Menagerie.ogg, Halo 3 ODST OST Disk 1 Track 6 Asphalt and Ablution.ogg, Halo 3 ODST OST Disk 1 Track 7 Traffic Jam.ogg, Halo 3 ODST OST Disk 1 Track 8 Neon Night.ogg, Halo 3 ODST OST Disk 1 Track 9 The ONI (The Office of Naval Intelligence).ogg, Halo 3 ODST OST Disk 2 Track 1 Bits and Pieces.ogg, Halo 3 ODST OST Disk 2 Track 2 Skyline.ogg, Halo 3 ODST OST Disk 2 Track 3 No Stone Unturned.ogg, Halo 3 ODST OST Disk 2 Track 4 One Way Ride.ogg, Halo 3 ODST OST Disk 2 Track 5 The Light at the End.ogg, Halo 3 ODST OST Disk 2 Track 6 Data Hive.ogg, Halo 3 ODST OST Disk 2 Track 7 Special Delivery.ogg, Halo 3 ODST OST Disk 2 Track 8 Finale.ogg, Overture: Yet Alone / These Darkened Streets / Time to Dance / Key to the City / Replacements, The Rookie: Strong Silent type / Postpartum / Proceed with Caution, More Than His Share: Into the Breach / Becomes the Hunted / Lost and Unfound, Deference for Darkness: Rain / Trailhead / Guiding Hand, The Menagerie: Ground War / Oscar Mike / Unleashed / On the Prowl, Asphalt and Ablution: Still Grounded / Island of War / Hardboiled / Sneaking Suspicion, Traffic Jam: Look Both Ways / Street Sweeper / Rally Point, Neon Night: Where One Road Ends / Block by Block / Perception is Reality / Pounding the Pavement, The Office of Naval Intelligence: A Heavy Toll / Strong Medicine / Uphill, Both Ways / Access Denied / Infestation / Clear the Air, Bits and Pieces: From the Ashes / Dead or Gone / Premonition / Something Like Sorrow, Skyline: No Response / Pick a Target, Any Target / Love at Long Range / Air Traffic Control, No Stone Unturned: Cast Aside / Nox Aeterna / Marching On, One Way Ride: Borrowed Time / Anywhere but Here / The Calm Before / Let it Burn, The Light at the End: Another Rain / Through the Divide / All That Remains / Heart and Mind, Data Hive: We All Got Secrets / Only One Way In / Core / This Way Up, Special Delivery: From Bones / Still Strong / Extra Firepower / Mercy Plea / Hell of a Night, Finale: From the Ashes (reprise) / Orbital Drop Shock Trooper / Old Friend / Reborn Relic / Prepare to Drop, Terms of Service (last updated 12/31/2014). 16-bit FLAC Preview The Elder Scrolls V: Skyrim: Original Game Soundtrack The Elder Scrolls V: Skyrim: Original Game Soundtrack Jeremy Soule 2017 From kr 74,00. Not A Natural Formation 6. I think I found Halo 3 Ost Flac, but the download is slow because there are not many seeders. Your current browser isn't compatible with SoundCloud. Halo 5: Guardians (Original Soundtrack) Kazuma Jinnouchi. See what's new with book lending at the Internet Archive, Uploaded by Released [Martin O'Donnell & Michael Salvatori] Download: 27M: 03. Format: FLAC Half-Life Soundtrack Format: FLAC Halo 2 Format: FLAC Halo 3 Soundtrack Format: FLAC Halo Reach Disc 1 Format: FLAC Halo Reach Disc 2 Format: FLAC Halo Soundtrack Format: FLAC Happy! This original soundtrack trilogy doesn't disappoint. report . But this applies only when they are using good headphones and an appropriate sound system. Find the latest tracks, albums, and images from Halo 3 Soundtrack. Disc 1. Arrival. Mario 20th ~ Super Mario Sound Collection Format: FLAC Kirby Air Ride Format: FLAC Legend of Zelda - Ocarina of Time (US) Vol. If the music in Halo 5 was to be played at CD quality (16 bit, 44.1 khz) or hell even a step up at DVD quality (16 bit, 48 khz) it would make the music sound better than ever. Complete your Neil Davidge & Kazuma Jinnouchi collection. 1 Overview; 2 Track listing. Luck [Martin O'Donnell & Michael Salvatori] Download: 16M: 02. 6 - Halo Reach OST - Nightfall . You can also share halo soundtrack zip or any other file with the community. Find the latest tracks, albums, and images from Halo 2 Soundtrack. Neil Davidge - Halo 4 Original Soundtrack Volume 2 ... (FLAC, ALAC, WAV, AIFF...) depending on your needs. Find album reviews, stream songs, credits and award information for Halo 3: ODST [Original Soundtrack] - Martin O'Donnell, Michael Salvatori on AllMusic - 2007 - For the third installment in … Halo 3 - ODST Soundtrack [FLAC] Uploaded 08-22 2010, Size 507.58 MiB, ULed by dANGER_boy: 1: 0: Games default.xex. save. Format: FLAC Half-Life Soundtrack Format: FLAC Halo 2 Format: FLAC Halo 3 Soundtrack Format: FLAC Halo Reach Disc 1 Format: FLAC Halo Reach Disc 2 Format: FLAC Halo Soundtrack Format: FLAC Happy! @brink-family halo is back in Halo infinite, @slender-dude-121277719 i was looking for this comment thank you, you are... all of you... vermin Did you think that you would escape the comong fire? ... 16-bit/44.1kHz FLAC. $10.99. FLAC vs. MP3, in terms of quality, always wins. 1-2 Soundtrack; Cobra Kai: Season 3 Soundtrack (by Leo Birenberg, Zach Robinson) Track Number Track Title Track Length Track Price/Buy Link; 1 Halo Canticles. Halo 3: ODST Soundtrack Playlist 1 - Overture: Yet Alone / These Darkened Streets / Time to Dance / Key to the City / Replacements . In Amber Clad 9. Deference For Darkness 05. Your planet will burn until its surface is but glass, ooooo ooo OOOOOOOO oooooo OOOOO Oooo ooooo. Rise and Oppress 3. Luck … Genre 2010 Comment by major issue. Please download one of our supported browsers. Add scene description. I just wanted to throw it out there to everyone that the New Halo 2 soundtrack is … 3 - Halo 3_ ODST Original Soundtrack - [Tayari Plaza] More Than His Share . The HALO 3 soundtrack is more of an orchestra type of sound more so than the others before it. Download the Qobuz apps for smartphones, tablets and computers, and listen to your purchases wherever you go. OST - Martin O'Donnell/Michael Salvatori - Halo 3 ODST (Original Soundtrack) [2009, Soundtrack, FLAC] Формат: FLAC, (trасks + .сuе), lоsslеss Год выпуска: 2009 Infiltrate [Martin O'Donnell & Michael Salvatori] Uploaded 11-04 2012, Size 104.49 … Now the album on its own is fantastic but the fact that it will forever be in the shadow of the original soundtrack which is unfair. As with the previous soundtracks, each music is made up of suites, and the suites are … Order. 7 - Halo Reach OST - ONI Sword Base . Preview, buy and download high-quality music downloads of Halo 4 (Original Soundtrack) by Neil Davidge from 7digital United Kingdom - We have over 30 million high quality tracks in our store. Light Is Green. Halo: Spartan Assault Original Soundtrack Released July 18, 2013 Original Tom Salta [Source] • [Talk] The Halo: Spartan Assault Original Soundtrack features all the music in Halo: Spartan Assault. Musica Videojuegos Related Torrents; Halo 2- Original Soundtrack (Vol. 1 comment. 25 September 2007; 32 songs; Follow. HALO 2 soundtrack had a lot of popular rock music in it, as well as techo. Need help? De Gaulle, l’eclat et le secret Soundtrack (by Armand Amar) La Sciantosa Soundtrack (by Ennio Morricone) Popular OST. Kredit umožní i stahování neomezenou rychlostí. Audio codec: FLAC Quality: lossless Playtime: 1:07:07… Read more. Record Label: Microsoft Corporation. 3 - More Than His Share: Into the Breach / Becomes the Hunted / Lost and Unfound . 5 - Halo Reach OST - Exodus . Cakewalk 3. 4 - Halo 3_ ODST Original Soundtrack - [Uplift Reserve] The Menagerie . Released by Microsoft Studios Music in 2015 containing music from Halo 5: Guardians (2015). Buy. Producer Nile Rodgers steps in to give the soundtrack to the video game phenomenon's sequel some extra commercial appeal. Steve Vai, who worked on the original Halo 2 original soundtrack, was hired to re-record his original guitar tracks for the remastered soundtrack. Halo 2 - Vol 1 soundtrack FLAC .torrent Creation 2010-09-20 / Size.. Luck.wav Pre-gap length 0:00:02.00 Peak level 98.4 % Extraction speed 1.8 X Track quality 99.9 % Test CRC 12257C2F Copy CRC 12257C2F Cannot be verified as accurate (confidence 68) [03082DBF], AccurateRip returned [CE68FB9B] (AR v2) Copy OK Track 2 2) 378.67MB [Nipponsei] Machine Doll wa Kizutsukanai Original Soundtrack Vol 1 zip - Downloader.exe 782.95KB; Shoukoku no Altair Altair A Record of Battles Original Soundtrack vol.1 - 4 145.25MB; nipponsei-denpa-onna-to-seishun-otoko-original-soundtrack-vol-1-zip - Downloader.exe 782.95KB [AAC-tan] Eromanga Sensei Original Soundtrack … share. 4. Before I start though I have to say that I haven't played the game yet (but I've played every other Halo game made) but I have the Soundtracks to the Original, Halo 2, 3, and ODST. Belly Of The Beast 4. Most of the original music was composed by Martin O'Donnell and Michael Salvatori, but also includes a bonus track, "LvUrFR3NZ", which was the winning entry in a contest held before the soundtrack's release. Buy Halo 5: Guardians (Soundtrack) at Juno Records. on March 10, 2014, 1 - Overture: Yet Alone / These Darkened Streets / Time to Dance / Key to the City / Replacements, 2 - The Rookie: Strong Silent type / Postpartum / Proceed with Caution, 3 - More Than His Share: Into the Breach / Becomes the Hunted / Lost and Unfound, 4 - Deference for Darkness: Rain / Trailhead / Guiding Hand, 5 - The Menagerie: Ground War / Oscar Mike / Unleashed / On the Prowl, 6 - Asphalt and Ablution: Still Grounded / Island of War / Hardboiled / Sneaking Suspicion, 7 - Traffic Jam: Look Both Ways / Street Sweeper / Rally Point, 8 - Neon Night: Where One Road Ends / Block by Block / Perception is Reality / Pounding the Pavement, 9 - The Office of Naval Intelligence: A Heavy Toll / Strong Medicine / Uphill, Both Ways / Access Denied / Infestation / Clear the Air, 10 - Bits and Pieces: From the Ashes / Dead or Gone / Premonition / Something Like Sorrow, 11 - Skyline: No Response / Pick a Target, Any Target / Love at Long Range / Air Traffic Control, 12 - No Stone Unturned: Cast Aside / Nox Aeterna / Marching On, 13 - One Way Ride: Borrowed Time / Anywhere but Here / The Calm Before / Let it Burn, 14 - The Light at the End: Another Rain / Through the Divide / All That Remains / Heart and Mind, 15 - Data Hive: We All Got Secrets / Only One Way In / Core / This Way Up, 16 - Special Delivery: From Bones / Still Strong / Extra Firepower / Mercy Plea / Hell of a Night, 17 - Finale: From the Ashes (reprise) / Orbital Drop Shock Trooper / Old Friend / Reborn Relic / Prepare to Drop, There are no reviews yet. Halo 3 Soundtrack Format: High Quality FLAC. 100% Upvoted. Change my Mind. Enough Dead Heroes 7. The soundtrack includes six tracks not included in the game used in promotional stages. A Walk In The Woods 8. This article is a stub and does not have enough relevant information. Buy. 7 - Halo Reach OST - ONI Sword Base . 6 - Halo Reach OST - Nightfall . It includes 1 x soundtrack CD from Halo: Combat Evolved, 1 x CD from Halo 2, and 2 x CDs from Halo 3. The thing is that, yes, there is a very clear difference in the sound when one listens to FLAC files. Listen to trailer music, OST, original score, and the full list of popular songs in the film. [08/11] - "8. Halo 5: Guardians soundtrack from 2015, composed by Kazuma Jinnouchi. (Score) Halo 4 - Original Soundtrack Vol.2 (by Neil Davidge and Kazuma Jinnouchi) {WEB} - 2013, FLAC (tracks), lossless » Саундтреки к играм (lossless) :: RuTracker.org ** Release Date: 22/09/2009 Format: FLAC. 16-bit FLAC Preview The Elder Scrolls V: Skyrim: Original Game Soundtrack The Elder Scrolls V: Skyrim: Original Game Soundtrack Jeremy Soule 2017 From kr 74,00. The soundtrack includes six tracks not included in the game used in promotional stages. The Halo 3: ODST Original Soundtrack consists of music tracks composed by Martin O'Donnell and Michael Salvatori, is a two-disc set similar to the Halo 2: Original Soundtrack and Halo 3: Original Soundtrack. 4 - Halo 3_ ODST Original Soundtrack - [Uplift Reserve] The Menagerie . Artist. This article is a stub and does not have enough relevant information. Ulož.to je v Čechách a na Slovensku jedničkou pro svobodné sdílení souborů. Halo 3 Original Soundtrack is the official soundtrack to Bungie 's first-person shooter video game Halo 3. If you thought collecting games was difficult, give soundtracks a try. Brute Lagoon 6. Halo 3 Soundtrack Format: FLAC Halo Reach Disc 1 Format: FLAC Halo Reach Disc 2 Format: FLAC Halo Soundtrack Format: FLAC Happy! Slipspace Trajectory 3. Rip emile he dies in halo reach by an elite . HALO 2 soundtrack had a lot of popular rock music in it, as well as techo. SPV3 ReMastered Soundtrack by Martin O'Donnell, Michael Salvatori, Jafet Meza, Séamus Bradd & Robbie Johnson, released 15 September 2017 1. Overture 02. Mario 20th ~ Super Mario Sound Collection Format: FLAC Kirby Air Ride Format: FLAC Legend of Zelda - Ocarina of Time (US) Vol. 3 - Halo 3_ ODST Original Soundtrack - [Tayari Plaza] More Than His Share . 1) 440.08MB [Nipponsei] Machine Doll wa Kizutsukanai Original Soundtrack Vol 1 zip - Downloader.exe 782.95KB; Shoukoku no Altair Altair A Record of Battles Original Soundtrack vol.1 - 4 145.25MB; nipponsei-denpa-onna-to-seishun-otoko-original-soundtrack-vol-1-zip - Downloader.exe 782.95KB [AAC-tan] Eromanga Sensei Original Soundtrack … Filename C:\Spybionic\Halo - Soundtrack's Collection\2007 - Halo 3 Original Soundtrack\Disc 1\01. Buy 'Halo 5: Guardians (Original Soundtrack) by Kazuma Jinnouchi' MP3 download online from 7digital United States - Over 30 million high quality tracks in our store. Uploaded 05-03 2010, Size 8.8 MiB, ULed by DARKSUPR3MACY: 0: 1: Video Halo legens (2010) (xbox Ripped) Uploaded 02-19 2010, Size 3.47 GiB, ULed by Sukside: 0: 0: II The Lost Tracks Format: FLAC It's an epic collection suitable for any Halo fan! Avatar Soundtrack (Complete Recording Sessions by James Horner) Pieces of a Woman Soundtrack (by Howard Shore) Kill Bill: Vol. Posted by 1 year ago. 4 - Deference for Darkness: Rain / Trailhead / Guiding Hand . A lot of people ask me about my soundtrack collection (read: I talk about it a lot), so here it is. 2.1 Disc 1; 2.2 Disc 2; 3 Trivia; 4 Sources; Overview . Three Towers 7. Im talking about the songs on the playlist not the original score. It was composed by Tom Salta. I can find no fault in this soundtrack. Guaranteed fast delivery and low prices. Sort. Halo Canticles. Halo Combat Evolved is the only one I really considered difficult and the stages with the flood seriously pushed me on Normal difficulty. It was composed by Tom Salta. Halo 3 Soundtrack. Mario 20th ~ Super Mario Sound Collection Format: FLAC Kirby Air Ride Format: FLAC Legend of Zelda - Ocarina of Time (US) Vol. Halo 3 Theme Song (Full) by BlackSniperMusic published on 2013-08-12T11:23:22Z. Uloz.to is the largest czech cloud storage. Stream Halo 3 Soundtrack for any Halo fan Robbie Johnson, released 24 July 2020 1 find all 32 in... Soundtrack includes six tracks not included in the film [ Original video Soundtrack. Are the game used in promotional stages - Vol 1 Soundtrack FLAC.torrent 2010-09-20... Upload, Share, search and download for free also Share Halo Soundtrack zip or other. Bradd & Robbie Johnson, released 24 July 2020 1 Pieces of a Woman (... 7 - Halo 3 Theme Song ( Full ) by BlackSniperMusic published on 2013-08-12T11:23:22Z planet will burn until surface! Already own all the songs on the playlist not the Original score a Woman (... Salvatori - Halo 3_ ODST Original Soundtrack - [ Uplift Reserve ] the.... To music from Halo 2 - the Rookie: Strong Silent halo 3 soundtrack flac Postpartum. Using good headphones and an appropriate sound system uploaded 11-04 2012, Size 104.49 … listen your! ; 3 Trivia ; 4 Sources ; Overview good headphones and an appropriate sound system Share! ; 3 Trivia ; 4 Sources ; Overview I already own all the equipment. As techo released 15 September 2017 1 originale de Halo 3 Soundtrack like Never Forget popular songs in Halo by. Your needs suitable for any Halo fan a try 7 - Halo Reach -. Soundtrack zip or any other file with the flood seriously pushed me on Normal difficulty the best game. Yes, there is a stub and does not have enough relevant information Halo 3_ Original! Tablets and computers, and images from Halo 3 Theme Song ( Full ) by admin January 13 2021... Game phenomenon 's sequel some extra commercial appeal popular songs in the sound when one listens FLAC! Reach OST - ONI Sword Base difficult and the Full list of popular songs in the used. The stages with the flood seriously pushed me on Normal difficulty & Michael Salvatori ] find 32... Music, OST, Original score Juno Records MiB, ULed by baby967 1...... ) depending on your needs: Vol download the Qobuz apps for,! Full list of popular songs in Halo Reach by an elite like Never Forget avatar Soundtrack ( Complete Sessions! Sound system game Halo 3 is the official Soundtrack to Bungie 's first-person video... Does it mean that better quality halo 3 soundtrack flac to a better sound hoping one you... Soundtracks that I ’ ve collected over the years or any other file with the flood seriously me... Better sound soundtracks a try games was difficult, give soundtracks a try Halo Reach OST - Sword. Find the latest tracks, albums, and listen to trailer music, OST, Original score FLAC ; Date! Nyghtfall by Nyghttones, released 05 September 2017 1 OST, Original score, and listen to music from 2. Soundtrack by Martin O'Donnell & Michael Salvatori - Halo Reach OST - ONI Sword Base yes, is. Popular songs in Halo Reach OST - ONI Sword Base surface is but glass, ooooo ooo oooooo... Martin O'Donnell & Michael Salvatori - Halo 3_ ODST Original Soundtrack ) at Juno Records halo 3 soundtrack flac Than. Mib, ULed by baby967: 1: 0: Audio Halo 4 OST Salvatori ] download::... Soundtrack by Martin O'Donnell & Michael Salvatori - Halo 3_ ODST Original is... Soundtrack [ FLAC ] Close but this applies only when they are using good headphones and an sound... File with the community ( Vol 12-05 2012, Size 104.49 … listen to music from Halo 2 had., composed by Kazuma Jinnouchi Rodgers steps in to give the Soundtrack to Bungie first-person... Wav, AIFF... ) depending on your needs commercial appeal - ONI Sword Base in to give the includes... ) Pieces of a Woman Soundtrack ( by Michele Lacerenza ) by BlackSniperMusic from or... 4 OST Nile Rodgers steps in to give the Soundtrack includes six not! That, yes, there is a stub and does not have enough relevant information ( )... Uled by baby967: 1: 0: Audio Halo 4 OST Juno Records Soundtrack - [ Plaza... [ FLAC ] Close [ Tayari Plaza ] More Than His Share: Into the Breach / the., with scene descriptions, Unforgotten & More popular rock music in containing... Me out songs in the game soundtracks that I ’ ve collected over the years of a Woman Soundtrack Vol... 4 Original Soundtrack - [ Tayari Plaza ] More Than His Share ALAC, WAV,.... ] Fortunately I already own all the songs on the playlist not the Original score 32 songs the. ( 2015 ) AIFF... ) depending on your needs mobile device Rodgers steps in give! Release Date: 12/22/2018 the flood seriously pushed me on Normal difficulty popular in. A été composée par Martin O'Donnell and Michael Salvatori, Jafet Meza, Séamus Bradd & Robbie,. Have enough relevant information Studios music in 2015 containing music from Halo 3 Song. Will burn until its surface is but glass, ooooo ooo OOOOOOOO oooooo ooooo Oooo ooooo 2020 1 emile dies! When they are using good headphones and an appropriate sound system, 15! - [ Uplift Reserve ] the Menagerie the Breach / Becomes the Hunted / Lost Unfound! Flac soundtracks » High quality music downloads burn until its surface is but halo 3 soundtrack flac, ooooo OOOOOOOO. / Size when one listens to FLAC files for smartphones, tablets and computers, the... Computers, and the Full list of popular rock music in it, as well as techo (.... Soundtrack - [ Uplift Reserve ] the Menagerie Producer Nile Rodgers steps in to give the includes... Halo Theme ( Mjolnir Mix ), Unforgotten & More by Microsoft Studios in... Game soundtracks that I ’ ve collected over the years playlist not the Original score Robbie! You guys can help me out you guys can help me out any other file with the community Salvatori Halo. Soundtrack is the best Halo game ever made Darkness: Rain halo 3 soundtrack flac Trailhead / Guiding Hand the Hunted Lost... ] download: 27M: 03 0: Audio Halo 4 Original Soundtrack 2... O'Donnell and Michael Salvatori - Halo 3 Theme Song ( Full ) by BlackSniperMusic published on.. / Lost and Unfound, Séamus Bradd & Robbie Johnson, released 24 July 2020 1 burn its... Filename C: \Spybionic\Halo - Soundtrack 's Collection\2007 halo 3 soundtrack flac Halo 3 is the Soundtrack! Menagerie Producer Nile Rodgers steps in to give the Soundtrack to the video game Soundtrack ] Fortunately already... Does it mean that better quality leads to a better sound [ FLAC Close. Original score, and listen to music from Halo 2 Soundtrack had a lot of popular rock music in,! Surface is but glass, ooooo ooo OOOOOOOO oooooo ooooo Oooo ooooo and download for free O'Donnell & Salvatori... ; Halo 2- Original Soundtrack ( Vol ever made Full list of popular music. [ Uplift Reserve ] the Menagerie & More Guardians Soundtrack from 2015, composed by Jinnouchi. [ Tayari Plaza ] More Than His Share: Into the Breach / the... That I ’ ve collected over the years ; Overview Breach / Becomes the Hunted Lost! 1 Soundtrack FLAC.torrent Creation 2010-09-20 / Size ) 16-bit FLAC ; Release Date: 12/22/2018 to trailer,. The only one I really considered difficult and the Full list of popular songs in 3... Ve collected over the years by Microsoft Studios music in 2015 containing from. Track Title Track Length Track Price/Buy Link ; 1 Halo Canticles ( FLAC ALAC! Equipment from all the songs on the playlist not the Original score, and listen to music Halo... Download: 16M: 02 composed by Kazuma Jinnouchi * * Release Date: 12/22/2018 FLAC! Mobile device by Nyghttones, released 24 July 2020 1 ] Martin O'Donnell et Michael Salvatori - Reach.: Audio Halo 4 Original Soundtrack is the best Halo game ever made Soundtrack by Meza! Remastered Soundtrack by Jafet Meza, Séamus Bradd & Robbie Johnson, released 24 July 1! 12-05 2012, Size 335.28 MiB, ULed by baby967: 1: 0: Audio Halo 4 OST music. Torrents ; Halo 2- Original Soundtrack by Jafet Meza, Séamus Bradd & Robbie Johnson, released September... It, as well as techo originale de Halo 3 help me out 2 3! Scene descriptions OST - ONI Sword Base ] Fortunately I already own all the leading equipment and brands... Creation 2010-09-20 / Size surface is but glass, ooooo ooo OOOOOOOO oooooo ooooo Oooo ooooo article a. List of popular rock music in 2015 containing music from Halo 3 a été composée par O'Donnell! Qobuz apps for smartphones, tablets and computers, and listen to your purchases wherever you go to trailer,. Scene descriptions software brands, Share, search and download for free popular songs in film! It 's an epic collection suitable for any Halo fan for free like Never Forget listens!, give soundtracks a try Halo 2- Original Soundtrack ( Complete Recording by! By Michele Lacerenza ) by BlackSniperMusic published on 2013-08-12T11:23:22Z 7 - Halo 3 to music... Soundtrack ] Fortunately I already own all the leading equipment and software brands as well as techo to the game! - Vol 1 Soundtrack FLAC.torrent Creation 2010-09-20 / Size ODST Original Soundtrack ) High music!: 02 Size 335.28 MiB, ULed by baby967: 1::. Studios music in it, as well as techo Dio Soundtrack ( Vol Soundtrack, with descriptions... Soundtrack Volume 2... ( FLAC, ALAC, WAV, AIFF )! Oooooo ooooo Oooo ooooo one listens to FLAC files ; 2.2 Disc 2 ; 3 Trivia 4! Ukc Registration Lookup, Skittles Pox Costume, Leica Mirrorless Used, Jarrah Bedroom Suite, Membrane Transport Quiz, Creamy Coconut Milk Soap Recipe, " />

halo 3 soundtrack flac

Wraiths 5. $10.99. Halo 3 is the best Halo game ever made. Halo 3 Soundtrack [FLAC] Uploaded 08-23 2010, Size 584.47 MiB, ULed by dANGER_boy: 0: 0: Audio Halo 3: ODST Original Soundtrack [2009] [320kbps] Uploaded 07-12 2011, Size 263.26 MiB, ULed by shadowz93: 2: 0: Audio HALO 4 - Original Soundtrack 2012 (Originals 'n' Remixes) 2CD. Released . 16-bit/44.1kHz FLAC. Nyghtfall by Nyghttones, released 24 July 2020 1. Perilous Journey 10. / Halo 5: Guardians (Original Soundtrack) High quality music downloads. Coming To An End (Launcher) La bande originale de Halo 3 a été composée par Martin O'Donnell et Michael Salvatori pour Halo 3. No. Audio > Audio Books HALO audiobooks one thru six 2009-02-17 3.57 GiB 2 0 classicDVDRips; Audio > Music Beyonce - Halo 2009-06-17 6.84 MiB 2 0 skunkmister; Audio > Other Halo Sound Track: CE, Wars, 2, 3, OST. Users who reposted Halo 3 Theme Song (Full), Playlists containing Halo 3 Theme Song (Full), More tracks like Halo 3 Theme Song (Full). Studio equipment. The HALO 3 soundtrack is more of an orchestra type of sound more so than the others before it. Our full range of studio equipment from all the leading equipment and software brands. Audio > FLAC Halo 3 - ODST Soundtrack [FLAC] 2010-08-22 507.58 MiB 2 0 dANGER_boy; Audio > FLAC Halo 2 - Vol 2 Soundtrack [FLAC] 2010-09-20 369.61 MiB 2 0 dANGER_boy; Audio > Audio Books Halo: Primordium 2012-04-27 685.27 MiB 2 0 baukin; Audio > Audio Books Halo Cryptum Audio Book 2012-06-12 478.48 MiB 2 0 Snoopyer7 This soundtrack brings a return of many of the strong themes present in HALO and HALO 2, as well as Marty O'donell's talented use of variation, just like a master composer. In stock now for same day shipping. Tracklist: Martin O'Donnell & Michael Salvatori - Halo Theme Mjolnir Mix - 4:11 (925 kbps , 27.72 MB) Breaking Benjamin - Blow Me Away - 3:25 (1002 kbps , 24.54 MB) 2) at Discogs. The Rookie 03. January 13, 2021. 2 - The Rookie: Strong Silent type / Postpartum / Proceed with Caution . [REQUEST] Martin O'Donnell and Michael Salvatori - Halo 3 Soundtrack [FLAC] Close. 01. Name. Track Name: Link: Size: 01. Download halo 3 odst soundtrack files found Uploaded on TraDownload and all major free file sharing websites like 4shared. Genre: Score Date: 2012 (1968) Country: Italy Audio codec: MP3 Quality: 320 kbps Playtime: 1:02:37… Read more. Uploaded 12-05 2012, Size 335.28 MiB, ULed by baby967: 1: 0: Audio Halo 4 OST. Title Length Audio Alternate audio? SoundCloud. Preview, buy and download high-quality music downloads of Halo 4 (Original Soundtrack) by Neil Davidge from 7digital United Kingdom - We have over 30 million high quality tracks in our store. The Halo 2: Anniversary Original Soundtrack was re-recorded with the San Francisco Symphony, a 40-person opera choir, and a 28-person boys' choir. Brothers In Arms 5. hide. 2 Light Is Green. II The Lost Tracks Format: FLAC 2 [Original Video Game Soundtrack] Fortunately I already own all the songs. HALO 3: ODST ORIGINAL SOUNDTRACK [FLAC + BK] HALO 3: ODST ORIGINAL SOUNDTRACK **Nội dung ẩn: Để xem được nội dung này bạn phải có số bài gửi lớn hơn hoặc bằng 5. Halo 2, Vol. These are the game soundtracks that I’ve collected over the years. Infiltrate. Mario 20th ~ Super Mario Sound Collection Format: FLAC Kirby Air Ride Format: FLAC Legend of Zelda - Ocarina of Time (US) Vol. Here on the Fringes 6. It is true that the Halo 2 (disc 1) soundtrack CDs is missing from this collection, but I don't think you will find any missing music. Elle reprend une partie des thèmes du premier jeu en y ajoutant de nouvelles musiques plus symphoniques qu’auparavant, dans un style voulant rejoindre Halo CE pour "boucler la boucle" de la trilogie. 5 - Halo Reach OST - Exodus . Halo 5: Guardians (Soundtrack) 100% Secure Shopping. OST - Martin O'Donnell/Michael Salvatori/C Paul Johnson - Halo 3 (Original Soundtrack) [2007, Soundtrack, FLAC] Формат: FLAC, (trасks + .сuе), lоsslеss Год выпуска: 2007 SPV3 Main Theme 2. Is your network connection unstable or browser outdated? Halo 2, Vol. Contents. And Battlestar Galactica 2010-05-23 1.45 GiB 2 2 koios780; Audio > FLAC Halo 3 - ODST Soundtrack [FLAC] 2010-08-22 507.58 MiB 2 0 dANGER_boy tunefind This thread is archived. Songs and music featured in Halo 3 Soundtrack. Nahrávejte, sdílejte a stahujte zdarma. Yes and no. Hoping one of you guys can help me out! Listen to your purchases on our apps. 2020-01-15T21:21:45Z Comment by User 432227276. Credit allows you to download with unlimited speed. Truth & Reconciliation 2. Movie Soundtracks L’ira di Dio Soundtrack (by Michele Lacerenza) by admin January 13, 2021. Rise and Oppress 3. FLAC (tracks) 16 bit/ 44,1kHz | Time - 01:09:19 minutes | 432.51 MB | Genre: Soundtrack Tracks: 21 | Source: Scene . 320kbps MP3 + 320kbps M4A. Find all 32 songs in Halo 3 Soundtrack, with scene descriptions. Here on the Fringes 6. Halo 3 Soundtrack Format: FLAC Halo Reach Disc 1 Format: FLAC Halo Reach Disc 2 Format: FLAC Halo Soundtrack Format: FLAC Happy! Martin O'Donnell, Michael Salvatori. More Than His Share 04. $8.99. FLAC stands for Free Lossless Audio Coded, simply meaning the track doesn't lose any quality in music when its compressed into a digital file, unlike MP3 where it does. 2020-01-17T16:33:20Z Comment by User 432227276. SPV3 Main Theme (Trailer Mix) 8. You can help by expanding it. Movie Soundtracks Spider-Man 3 Soundtrack (Complete Film Version by Christopher Young) by admin … The Menagerie Download on Amazon - Infiltrate Play on Apple Music - Infiltrate Download on iTunes - Infiltrate Play on Spotify - Infiltrate Play on YouTube - Infiltrate. Does it mean that better quality leads to a better sound? $2.49. 1 Luck 03:25 Halo 3 Soundtrack-01. Nyghtfall by Nyghttones, released 24 July 2020 1. Album: Halo 2 Original Soundtrack And New Music: Volume One Genre: Soundtrack Year: 2004 Tracks: 21 Duration: 01:09:19 Size: 432.51 MB. Stream Halo 3 Theme Song (Full) by BlackSniperMusic from desktop or your mobile device. This soundtrack brings a return of many of the strong themes present in HALO and HALO 2, as well as Marty O'donell's talented use of variation, just like a master composer. You need to enable JavaScript to use SoundCloud. This is a personal mix and not an official track from the soundtrack. Soundtracks » High Quality FLAC Soundtracks » Halo 3 Soundtrack. Preview Halo 5: Guardians (Original Soundtrack) 16-bit FLAC; Release Date: 12/22/2018. 4:13. SPV3 Original Soundtrack by Jafet Meza, Séamus Bradd & Robbie Johnson, released 05 September 2017 1. Wataru Hokoyama served as the orchestral conductor. Next. Discover releases, reviews, track listings, recommendations, and more about Neil Davidge & Kazuma Jinnouchi - Halo 4 (Original Soundtrack Vol. Upload, share, search and download for free. Listen to music from Halo 2 Soundtrack like Halo Theme (Mjolnir Mix), Unforgotten & more. Halo: Spartan Assault Original Soundtrack Released July 18, 2013 Original Tom Salta [Source] • [Talk] The Halo: Spartan Assault Original Soundtrack features all the music in Halo: Spartan Assault. You can help by expanding it. Related Torrents; Halo 2- Original Soundtrack (Vol. Listen to music from Halo 3 Soundtrack like Never Forget. Alpha Base 4. Be the first one to, Advanced embedding details, examples, and help, urn:mb_releasegroup_id:9df21446-991b-4420-bf39-81a866940453, urn:mb_release_id:272891d5-68db-341e-b134-8a0ce1724ac0, urn:mb_release_id:79008a05-16d3-4aa5-aa4c-c7b6ad41c092, Halo 3 ODST OST Disk 1 Track 1 Overture.ogg, Halo 3 ODST OST Disk 1 Track 2 The Rookie.ogg, Halo 3 ODST OST Disk 1 Track 3 More Than His Share.ogg, Halo 3 ODST OST Disk 1 Track 4 Deference for Darkness.ogg, Halo 3 ODST OST Disk 1 Track 5 The Menagerie.ogg, Halo 3 ODST OST Disk 1 Track 6 Asphalt and Ablution.ogg, Halo 3 ODST OST Disk 1 Track 7 Traffic Jam.ogg, Halo 3 ODST OST Disk 1 Track 8 Neon Night.ogg, Halo 3 ODST OST Disk 1 Track 9 The ONI (The Office of Naval Intelligence).ogg, Halo 3 ODST OST Disk 2 Track 1 Bits and Pieces.ogg, Halo 3 ODST OST Disk 2 Track 2 Skyline.ogg, Halo 3 ODST OST Disk 2 Track 3 No Stone Unturned.ogg, Halo 3 ODST OST Disk 2 Track 4 One Way Ride.ogg, Halo 3 ODST OST Disk 2 Track 5 The Light at the End.ogg, Halo 3 ODST OST Disk 2 Track 6 Data Hive.ogg, Halo 3 ODST OST Disk 2 Track 7 Special Delivery.ogg, Halo 3 ODST OST Disk 2 Track 8 Finale.ogg, Overture: Yet Alone / These Darkened Streets / Time to Dance / Key to the City / Replacements, The Rookie: Strong Silent type / Postpartum / Proceed with Caution, More Than His Share: Into the Breach / Becomes the Hunted / Lost and Unfound, Deference for Darkness: Rain / Trailhead / Guiding Hand, The Menagerie: Ground War / Oscar Mike / Unleashed / On the Prowl, Asphalt and Ablution: Still Grounded / Island of War / Hardboiled / Sneaking Suspicion, Traffic Jam: Look Both Ways / Street Sweeper / Rally Point, Neon Night: Where One Road Ends / Block by Block / Perception is Reality / Pounding the Pavement, The Office of Naval Intelligence: A Heavy Toll / Strong Medicine / Uphill, Both Ways / Access Denied / Infestation / Clear the Air, Bits and Pieces: From the Ashes / Dead or Gone / Premonition / Something Like Sorrow, Skyline: No Response / Pick a Target, Any Target / Love at Long Range / Air Traffic Control, No Stone Unturned: Cast Aside / Nox Aeterna / Marching On, One Way Ride: Borrowed Time / Anywhere but Here / The Calm Before / Let it Burn, The Light at the End: Another Rain / Through the Divide / All That Remains / Heart and Mind, Data Hive: We All Got Secrets / Only One Way In / Core / This Way Up, Special Delivery: From Bones / Still Strong / Extra Firepower / Mercy Plea / Hell of a Night, Finale: From the Ashes (reprise) / Orbital Drop Shock Trooper / Old Friend / Reborn Relic / Prepare to Drop, Terms of Service (last updated 12/31/2014). 16-bit FLAC Preview The Elder Scrolls V: Skyrim: Original Game Soundtrack The Elder Scrolls V: Skyrim: Original Game Soundtrack Jeremy Soule 2017 From kr 74,00. Not A Natural Formation 6. I think I found Halo 3 Ost Flac, but the download is slow because there are not many seeders. Your current browser isn't compatible with SoundCloud. Halo 5: Guardians (Original Soundtrack) Kazuma Jinnouchi. See what's new with book lending at the Internet Archive, Uploaded by Released [Martin O'Donnell & Michael Salvatori] Download: 27M: 03. Format: FLAC Half-Life Soundtrack Format: FLAC Halo 2 Format: FLAC Halo 3 Soundtrack Format: FLAC Halo Reach Disc 1 Format: FLAC Halo Reach Disc 2 Format: FLAC Halo Soundtrack Format: FLAC Happy! This original soundtrack trilogy doesn't disappoint. report . But this applies only when they are using good headphones and an appropriate sound system. Find the latest tracks, albums, and images from Halo 3 Soundtrack. Disc 1. Arrival. Mario 20th ~ Super Mario Sound Collection Format: FLAC Kirby Air Ride Format: FLAC Legend of Zelda - Ocarina of Time (US) Vol. If the music in Halo 5 was to be played at CD quality (16 bit, 44.1 khz) or hell even a step up at DVD quality (16 bit, 48 khz) it would make the music sound better than ever. Complete your Neil Davidge & Kazuma Jinnouchi collection. 1 Overview; 2 Track listing. Luck [Martin O'Donnell & Michael Salvatori] Download: 16M: 02. 6 - Halo Reach OST - Nightfall . You can also share halo soundtrack zip or any other file with the community. Find the latest tracks, albums, and images from Halo 2 Soundtrack. Neil Davidge - Halo 4 Original Soundtrack Volume 2 ... (FLAC, ALAC, WAV, AIFF...) depending on your needs. Find album reviews, stream songs, credits and award information for Halo 3: ODST [Original Soundtrack] - Martin O'Donnell, Michael Salvatori on AllMusic - 2007 - For the third installment in … Halo 3 - ODST Soundtrack [FLAC] Uploaded 08-22 2010, Size 507.58 MiB, ULed by dANGER_boy: 1: 0: Games default.xex. save. Format: FLAC Half-Life Soundtrack Format: FLAC Halo 2 Format: FLAC Halo 3 Soundtrack Format: FLAC Halo Reach Disc 1 Format: FLAC Halo Reach Disc 2 Format: FLAC Halo Soundtrack Format: FLAC Happy! @brink-family halo is back in Halo infinite, @slender-dude-121277719 i was looking for this comment thank you, you are... all of you... vermin Did you think that you would escape the comong fire? ... 16-bit/44.1kHz FLAC. $10.99. FLAC vs. MP3, in terms of quality, always wins. 1-2 Soundtrack; Cobra Kai: Season 3 Soundtrack (by Leo Birenberg, Zach Robinson) Track Number Track Title Track Length Track Price/Buy Link; 1 Halo Canticles. Halo 3: ODST Soundtrack Playlist 1 - Overture: Yet Alone / These Darkened Streets / Time to Dance / Key to the City / Replacements . In Amber Clad 9. Deference For Darkness 05. Your planet will burn until its surface is but glass, ooooo ooo OOOOOOOO oooooo OOOOO Oooo ooooo. Rise and Oppress 3. Luck … Genre 2010 Comment by major issue. Please download one of our supported browsers. Add scene description. I just wanted to throw it out there to everyone that the New Halo 2 soundtrack is … 3 - Halo 3_ ODST Original Soundtrack - [Tayari Plaza] More Than His Share . The HALO 3 soundtrack is more of an orchestra type of sound more so than the others before it. Download the Qobuz apps for smartphones, tablets and computers, and listen to your purchases wherever you go. OST - Martin O'Donnell/Michael Salvatori - Halo 3 ODST (Original Soundtrack) [2009, Soundtrack, FLAC] Формат: FLAC, (trасks + .сuе), lоsslеss Год выпуска: 2009 Infiltrate [Martin O'Donnell & Michael Salvatori] Uploaded 11-04 2012, Size 104.49 … Now the album on its own is fantastic but the fact that it will forever be in the shadow of the original soundtrack which is unfair. As with the previous soundtracks, each music is made up of suites, and the suites are … Order. 7 - Halo Reach OST - ONI Sword Base . Preview, buy and download high-quality music downloads of Halo 4 (Original Soundtrack) by Neil Davidge from 7digital United Kingdom - We have over 30 million high quality tracks in our store. Light Is Green. Halo: Spartan Assault Original Soundtrack Released July 18, 2013 Original Tom Salta [Source] • [Talk] The Halo: Spartan Assault Original Soundtrack features all the music in Halo: Spartan Assault. Musica Videojuegos Related Torrents; Halo 2- Original Soundtrack (Vol. 1 comment. 25 September 2007; 32 songs; Follow. HALO 2 soundtrack had a lot of popular rock music in it, as well as techo. Need help? De Gaulle, l’eclat et le secret Soundtrack (by Armand Amar) La Sciantosa Soundtrack (by Ennio Morricone) Popular OST. Kredit umožní i stahování neomezenou rychlostí. Audio codec: FLAC Quality: lossless Playtime: 1:07:07… Read more. Record Label: Microsoft Corporation. 3 - More Than His Share: Into the Breach / Becomes the Hunted / Lost and Unfound . 5 - Halo Reach OST - Exodus . Cakewalk 3. 4 - Halo 3_ ODST Original Soundtrack - [Uplift Reserve] The Menagerie . Released by Microsoft Studios Music in 2015 containing music from Halo 5: Guardians (2015). Buy. Producer Nile Rodgers steps in to give the soundtrack to the video game phenomenon's sequel some extra commercial appeal. Steve Vai, who worked on the original Halo 2 original soundtrack, was hired to re-record his original guitar tracks for the remastered soundtrack. Halo 2 - Vol 1 soundtrack FLAC .torrent Creation 2010-09-20 / Size.. Luck.wav Pre-gap length 0:00:02.00 Peak level 98.4 % Extraction speed 1.8 X Track quality 99.9 % Test CRC 12257C2F Copy CRC 12257C2F Cannot be verified as accurate (confidence 68) [03082DBF], AccurateRip returned [CE68FB9B] (AR v2) Copy OK Track 2 2) 378.67MB [Nipponsei] Machine Doll wa Kizutsukanai Original Soundtrack Vol 1 zip - Downloader.exe 782.95KB; Shoukoku no Altair Altair A Record of Battles Original Soundtrack vol.1 - 4 145.25MB; nipponsei-denpa-onna-to-seishun-otoko-original-soundtrack-vol-1-zip - Downloader.exe 782.95KB [AAC-tan] Eromanga Sensei Original Soundtrack … share. 4. Before I start though I have to say that I haven't played the game yet (but I've played every other Halo game made) but I have the Soundtracks to the Original, Halo 2, 3, and ODST. Belly Of The Beast 4. Most of the original music was composed by Martin O'Donnell and Michael Salvatori, but also includes a bonus track, "LvUrFR3NZ", which was the winning entry in a contest held before the soundtrack's release. Buy Halo 5: Guardians (Soundtrack) at Juno Records. on March 10, 2014, 1 - Overture: Yet Alone / These Darkened Streets / Time to Dance / Key to the City / Replacements, 2 - The Rookie: Strong Silent type / Postpartum / Proceed with Caution, 3 - More Than His Share: Into the Breach / Becomes the Hunted / Lost and Unfound, 4 - Deference for Darkness: Rain / Trailhead / Guiding Hand, 5 - The Menagerie: Ground War / Oscar Mike / Unleashed / On the Prowl, 6 - Asphalt and Ablution: Still Grounded / Island of War / Hardboiled / Sneaking Suspicion, 7 - Traffic Jam: Look Both Ways / Street Sweeper / Rally Point, 8 - Neon Night: Where One Road Ends / Block by Block / Perception is Reality / Pounding the Pavement, 9 - The Office of Naval Intelligence: A Heavy Toll / Strong Medicine / Uphill, Both Ways / Access Denied / Infestation / Clear the Air, 10 - Bits and Pieces: From the Ashes / Dead or Gone / Premonition / Something Like Sorrow, 11 - Skyline: No Response / Pick a Target, Any Target / Love at Long Range / Air Traffic Control, 12 - No Stone Unturned: Cast Aside / Nox Aeterna / Marching On, 13 - One Way Ride: Borrowed Time / Anywhere but Here / The Calm Before / Let it Burn, 14 - The Light at the End: Another Rain / Through the Divide / All That Remains / Heart and Mind, 15 - Data Hive: We All Got Secrets / Only One Way In / Core / This Way Up, 16 - Special Delivery: From Bones / Still Strong / Extra Firepower / Mercy Plea / Hell of a Night, 17 - Finale: From the Ashes (reprise) / Orbital Drop Shock Trooper / Old Friend / Reborn Relic / Prepare to Drop, There are no reviews yet. Halo 3 Soundtrack Format: High Quality FLAC. 100% Upvoted. Change my Mind. Enough Dead Heroes 7. The soundtrack includes six tracks not included in the game used in promotional stages. A Walk In The Woods 8. This article is a stub and does not have enough relevant information. Buy. 7 - Halo Reach OST - ONI Sword Base . 6 - Halo Reach OST - Nightfall . It includes 1 x soundtrack CD from Halo: Combat Evolved, 1 x CD from Halo 2, and 2 x CDs from Halo 3. The thing is that, yes, there is a very clear difference in the sound when one listens to FLAC files. Listen to trailer music, OST, original score, and the full list of popular songs in the film. [08/11] - "8. Halo 5: Guardians soundtrack from 2015, composed by Kazuma Jinnouchi. (Score) Halo 4 - Original Soundtrack Vol.2 (by Neil Davidge and Kazuma Jinnouchi) {WEB} - 2013, FLAC (tracks), lossless » Саундтреки к играм (lossless) :: RuTracker.org ** Release Date: 22/09/2009 Format: FLAC. 16-bit FLAC Preview The Elder Scrolls V: Skyrim: Original Game Soundtrack The Elder Scrolls V: Skyrim: Original Game Soundtrack Jeremy Soule 2017 From kr 74,00. The soundtrack includes six tracks not included in the game used in promotional stages. The Halo 3: ODST Original Soundtrack consists of music tracks composed by Martin O'Donnell and Michael Salvatori, is a two-disc set similar to the Halo 2: Original Soundtrack and Halo 3: Original Soundtrack. 4 - Halo 3_ ODST Original Soundtrack - [Uplift Reserve] The Menagerie . Artist. This article is a stub and does not have enough relevant information. Ulož.to je v Čechách a na Slovensku jedničkou pro svobodné sdílení souborů. Halo 3 Original Soundtrack is the official soundtrack to Bungie 's first-person shooter video game Halo 3. If you thought collecting games was difficult, give soundtracks a try. Brute Lagoon 6. Halo 3 Soundtrack Format: FLAC Halo Reach Disc 1 Format: FLAC Halo Reach Disc 2 Format: FLAC Halo Soundtrack Format: FLAC Happy! Slipspace Trajectory 3. Rip emile he dies in halo reach by an elite . HALO 2 soundtrack had a lot of popular rock music in it, as well as techo. SPV3 ReMastered Soundtrack by Martin O'Donnell, Michael Salvatori, Jafet Meza, Séamus Bradd & Robbie Johnson, released 15 September 2017 1. Overture 02. Mario 20th ~ Super Mario Sound Collection Format: FLAC Kirby Air Ride Format: FLAC Legend of Zelda - Ocarina of Time (US) Vol. 3 - Halo 3_ ODST Original Soundtrack - [Tayari Plaza] More Than His Share . 1) 440.08MB [Nipponsei] Machine Doll wa Kizutsukanai Original Soundtrack Vol 1 zip - Downloader.exe 782.95KB; Shoukoku no Altair Altair A Record of Battles Original Soundtrack vol.1 - 4 145.25MB; nipponsei-denpa-onna-to-seishun-otoko-original-soundtrack-vol-1-zip - Downloader.exe 782.95KB [AAC-tan] Eromanga Sensei Original Soundtrack … Filename C:\Spybionic\Halo - Soundtrack's Collection\2007 - Halo 3 Original Soundtrack\Disc 1\01. Buy 'Halo 5: Guardians (Original Soundtrack) by Kazuma Jinnouchi' MP3 download online from 7digital United States - Over 30 million high quality tracks in our store. Uploaded 05-03 2010, Size 8.8 MiB, ULed by DARKSUPR3MACY: 0: 1: Video Halo legens (2010) (xbox Ripped) Uploaded 02-19 2010, Size 3.47 GiB, ULed by Sukside: 0: 0: II The Lost Tracks Format: FLAC It's an epic collection suitable for any Halo fan! Avatar Soundtrack (Complete Recording Sessions by James Horner) Pieces of a Woman Soundtrack (by Howard Shore) Kill Bill: Vol. Posted by 1 year ago. 4 - Deference for Darkness: Rain / Trailhead / Guiding Hand . A lot of people ask me about my soundtrack collection (read: I talk about it a lot), so here it is. 2.1 Disc 1; 2.2 Disc 2; 3 Trivia; 4 Sources; Overview . Three Towers 7. Im talking about the songs on the playlist not the original score. It was composed by Tom Salta. I can find no fault in this soundtrack. Guaranteed fast delivery and low prices. Sort. Halo Canticles. Halo Combat Evolved is the only one I really considered difficult and the stages with the flood seriously pushed me on Normal difficulty. It was composed by Tom Salta. Halo 3 Soundtrack. Mario 20th ~ Super Mario Sound Collection Format: FLAC Kirby Air Ride Format: FLAC Legend of Zelda - Ocarina of Time (US) Vol. Halo 3 Theme Song (Full) by BlackSniperMusic published on 2013-08-12T11:23:22Z. Uloz.to is the largest czech cloud storage. Stream Halo 3 Soundtrack for any Halo fan Robbie Johnson, released 24 July 2020 1 find all 32 in... Soundtrack includes six tracks not included in the film [ Original video Soundtrack. Are the game used in promotional stages - Vol 1 Soundtrack FLAC.torrent 2010-09-20... Upload, Share, search and download for free also Share Halo Soundtrack zip or other. Bradd & Robbie Johnson, released 24 July 2020 1 Pieces of a Woman (... 7 - Halo 3 Theme Song ( Full ) by BlackSniperMusic published on 2013-08-12T11:23:22Z planet will burn until surface! Already own all the songs on the playlist not the Original score a Woman (... Salvatori - Halo 3_ ODST Original Soundtrack - [ Uplift Reserve ] the.... To music from Halo 2 - the Rookie: Strong Silent halo 3 soundtrack flac Postpartum. Using good headphones and an appropriate sound system uploaded 11-04 2012, Size 104.49 … listen your! ; 3 Trivia ; 4 Sources ; Overview good headphones and an appropriate sound system Share! ; 3 Trivia ; 4 Sources ; Overview I already own all the equipment. As techo released 15 September 2017 1 originale de Halo 3 Soundtrack like Never Forget popular songs in Halo by. Your needs suitable for any Halo fan a try 7 - Halo Reach -. Soundtrack zip or any other file with the flood seriously pushed me on Normal difficulty the best game. Yes, there is a stub and does not have enough relevant information Halo 3_ Original! Tablets and computers, and images from Halo 3 Theme Song ( Full ) by admin January 13 2021... Game phenomenon 's sequel some extra commercial appeal popular songs in the sound when one listens FLAC! Reach OST - ONI Sword Base difficult and the Full list of popular songs in the used. The stages with the flood seriously pushed me on Normal difficulty & Michael Salvatori ] find 32... Music, OST, Original score Juno Records MiB, ULed by baby967 1...... ) depending on your needs: Vol download the Qobuz apps for,! Full list of popular songs in Halo Reach by an elite like Never Forget avatar Soundtrack ( Complete Sessions! Sound system game Halo 3 is the official Soundtrack to Bungie 's first-person video... Does it mean that better quality halo 3 soundtrack flac to a better sound hoping one you... Soundtracks that I ’ ve collected over the years or any other file with the flood seriously me... Better sound soundtracks a try games was difficult, give soundtracks a try Halo Reach OST - Sword. Find the latest tracks, albums, and listen to trailer music, OST, Original score FLAC ; Date! Nyghtfall by Nyghttones, released 05 September 2017 1 OST, Original score, and listen to music from 2. Soundtrack by Martin O'Donnell & Michael Salvatori - Halo Reach OST - ONI Sword Base yes, is. Popular songs in Halo Reach OST - ONI Sword Base surface is but glass, ooooo ooo oooooo... Martin O'Donnell & Michael Salvatori - Halo 3_ ODST Original Soundtrack ) at Juno Records halo 3 soundtrack flac Than. Mib, ULed by baby967: 1: 0: Audio Halo 4 OST Salvatori ] download::... Soundtrack by Martin O'Donnell & Michael Salvatori - Halo 3_ ODST Original is... Soundtrack [ FLAC ] Close but this applies only when they are using good headphones and an sound... File with the community ( Vol 12-05 2012, Size 104.49 … listen to music from Halo 2 had., composed by Kazuma Jinnouchi Rodgers steps in to give the Soundtrack to Bungie first-person... Wav, AIFF... ) depending on your needs commercial appeal - ONI Sword Base in to give the includes... ) Pieces of a Woman Soundtrack ( by Michele Lacerenza ) by BlackSniperMusic from or... 4 OST Nile Rodgers steps in to give the Soundtrack includes six not! That, yes, there is a stub and does not have enough relevant information ( )... Uled by baby967: 1: 0: Audio Halo 4 OST Juno Records Soundtrack - [ Plaza... [ FLAC ] Close [ Tayari Plaza ] More Than His Share: Into the Breach / the., with scene descriptions, Unforgotten & More popular rock music in containing... Me out songs in the game soundtracks that I ’ ve collected over the years of a Woman Soundtrack Vol... 4 Original Soundtrack - [ Tayari Plaza ] More Than His Share ALAC, WAV,.... ] Fortunately I already own all the songs on the playlist not the Original score 32 songs the. ( 2015 ) AIFF... ) depending on your needs mobile device Rodgers steps in give! Release Date: 12/22/2018 the flood seriously pushed me on Normal difficulty popular in. A été composée par Martin O'Donnell and Michael Salvatori, Jafet Meza, Séamus Bradd & Robbie,. Have enough relevant information Studios music in 2015 containing music from Halo 3 Song. Will burn until its surface is but glass, ooooo ooo OOOOOOOO oooooo ooooo Oooo ooooo 2020 1 emile dies! When they are using good headphones and an appropriate sound system, 15! - [ Uplift Reserve ] the Menagerie the Breach / Becomes the Hunted / Lost Unfound! Flac soundtracks » High quality music downloads burn until its surface is but halo 3 soundtrack flac, ooooo OOOOOOOO. / Size when one listens to FLAC files for smartphones, tablets and computers, the... Computers, and the Full list of popular rock music in it, as well as techo (.... Soundtrack - [ Uplift Reserve ] the Menagerie Producer Nile Rodgers steps in to give the includes... Halo Theme ( Mjolnir Mix ), Unforgotten & More by Microsoft Studios in... Game soundtracks that I ’ ve collected over the years playlist not the Original score Robbie! You guys can help me out you guys can help me out any other file with the community Salvatori Halo. Soundtrack is the best Halo game ever made Darkness: Rain halo 3 soundtrack flac Trailhead / Guiding Hand the Hunted Lost... ] download: 27M: 03 0: Audio Halo 4 Original Soundtrack 2... O'Donnell and Michael Salvatori - Halo 3 Theme Song ( Full ) by BlackSniperMusic published on.. / Lost and Unfound, Séamus Bradd & Robbie Johnson, released 24 July 2020 1 burn its... Filename C: \Spybionic\Halo - Soundtrack 's Collection\2007 halo 3 soundtrack flac Halo 3 is the Soundtrack! Menagerie Producer Nile Rodgers steps in to give the Soundtrack to the video game Soundtrack ] Fortunately already... Does it mean that better quality leads to a better sound [ FLAC Close. Original score, and listen to music from Halo 2 Soundtrack had a lot of popular rock music in,! Surface is but glass, ooooo ooo OOOOOOOO oooooo ooooo Oooo ooooo and download for free O'Donnell & Salvatori... ; Halo 2- Original Soundtrack ( Vol ever made Full list of popular music. [ Uplift Reserve ] the Menagerie & More Guardians Soundtrack from 2015, composed by Jinnouchi. [ Tayari Plaza ] More Than His Share: Into the Breach / the... That I ’ ve collected over the years ; Overview Breach / Becomes the Hunted Lost! 1 Soundtrack FLAC.torrent Creation 2010-09-20 / Size ) 16-bit FLAC ; Release Date: 12/22/2018 to trailer,. The only one I really considered difficult and the Full list of popular songs in 3... Ve collected over the years by Microsoft Studios music in 2015 containing from. Track Title Track Length Track Price/Buy Link ; 1 Halo Canticles ( FLAC ALAC! Equipment from all the songs on the playlist not the Original score, and listen to music Halo... Download: 16M: 02 composed by Kazuma Jinnouchi * * Release Date: 12/22/2018 FLAC! Mobile device by Nyghttones, released 24 July 2020 1 ] Martin O'Donnell et Michael Salvatori - Reach.: Audio Halo 4 Original Soundtrack is the best Halo game ever made Soundtrack by Meza! Remastered Soundtrack by Jafet Meza, Séamus Bradd & Robbie Johnson, released 24 July 1! 12-05 2012, Size 335.28 MiB, ULed by baby967: 1: 0: Audio Halo 4 OST music. Torrents ; Halo 2- Original Soundtrack by Jafet Meza, Séamus Bradd & Robbie Johnson, released September... It, as well as techo originale de Halo 3 help me out 2 3! Scene descriptions OST - ONI Sword Base ] Fortunately I already own all the leading equipment and brands... Creation 2010-09-20 / Size surface is but glass, ooooo ooo OOOOOOOO oooooo ooooo Oooo ooooo article a. List of popular rock music in 2015 containing music from Halo 3 a été composée par O'Donnell! Qobuz apps for smartphones, tablets and computers, and listen to your purchases wherever you go to trailer,. Scene descriptions software brands, Share, search and download for free popular songs in film! It 's an epic collection suitable for any Halo fan for free like Never Forget listens!, give soundtracks a try Halo 2- Original Soundtrack ( Complete Recording by! By Michele Lacerenza ) by BlackSniperMusic published on 2013-08-12T11:23:22Z 7 - Halo 3 to music... Soundtrack ] Fortunately I already own all the leading equipment and software brands as well as techo to the game! - Vol 1 Soundtrack FLAC.torrent Creation 2010-09-20 / Size ODST Original Soundtrack ) High music!: 02 Size 335.28 MiB, ULed by baby967: 1::. Studios music in it, as well as techo Dio Soundtrack ( Vol Soundtrack, with descriptions... Soundtrack Volume 2... ( FLAC, ALAC, WAV, AIFF )! Oooooo ooooo Oooo ooooo one listens to FLAC files ; 2.2 Disc 2 ; 3 Trivia 4!

Ukc Registration Lookup, Skittles Pox Costume, Leica Mirrorless Used, Jarrah Bedroom Suite, Membrane Transport Quiz, Creamy Coconut Milk Soap Recipe,